smahu počasie

smahu počasie
smahu správy

smahu správy
smahu horoskopy
smahu onlinehry
 

Download hry,hudby,mapy,ankety..........

 

Hurá do basy / Let's Go to Prison (2006)

Info:
Celoživotní kriminálník a naprostý smolař John Lyshitski (Dax Shepard – Nekecej a pádluj) přišel na to, jak by se nejlépe pomstil soudci, který ho poslal do vězení: Kéž by mohl jednou vidět jeho nesnesitelného syna Nelsona Biedermana IV (Will Arnett – Rodinná dovolená a jiná neštěstí) taky sedět v base. Když je pak jednoho dne Nelson nespravedlivě obviněn a poslán do vězení, John se s radostí nechává zatknout s ním. A aby měl jistotu, že se jeho novému kámošovi dostane opravdu „správného zacházení“, zajistí si ubytování ve stejné cele. Hra začíná! Život v base nahání hrůzu, jídlo je ještě hroznější, a když si navíc vůdce vězeňského gangu Velký Barry usmyslí, že se nováček stane jeho “zvláštním přítelem”, Nelsonovi nezbývá, než si hodně rychle osvojit zlaté vězeňské pravidlo… NIKDY NESMÍŠ UPUSTIT MÝDLO! Přichází čas sprchování s gangstery, takže si nabruste břitvy a bavte se při téhle neuvěřitelně legrační vězeňské komedii.

CSFD:
http://www.csfd.cz/film/218294-hura-do-basy-lets-go-to-prison

Kvalita:
Kód:

Hlavní
Formát : AVI
Formát/Info : Audio Video Interleave
Velikost souboru : 709 MiB
Duration : 1h 25mn
Celkový BitRate : 1 157 Kbps
Použitý software : VirtualDubMod 1.5.4.1 (build 2178/release)
Enkódoval : VirtualDubMod build 2178/release

Video
Formát : MPEG-4 Visual
Format profile : Streaming Video@L1
Format settings, BVOP : Ano
Format settings, QPel : Ne
Format settings, GMC : No warppoints
Format settings, Matrix : Custom
Codec ID : XVID
Codec ID/Hint : XviD
Duration : 1h 25mn
Bit rate : 1 030 Kbps
Šířka : 608pixely
Výška : 336pixely
Poměr stran : 16/9
Frame rate : 25,000 fps
Rozlišení : 24 bits
Colorimetry : 4:2:0
Scan type : Progressive
Bits/(Pixel*Frame) : 0.202
Stream size : 631 MiB (89%)
Enkódoval : XviD 1.2.0.dev47 (UTC 2006-11-01)

Audio
Formát : MPEG Audio
Format version : Version 1
Format profile : Layer 3
Codec ID : 55
Codec ID/Hint : MP3
Duration : 1h 25mn
Bit rate mode : Variable
Bit rate : 114 Kbps
Minimum bit rate : 128 Kbps
Kanál(y) : 2 kanály
Sampling rate : 48,0 KHz
Rozlišení : 16 bits
Stream size : 69,9 MiB (10%)
Alignment : Aligned on interleaves
Interleave, duration : 24 ms (0,60 video frame)
Interleave, preload duration : 161 ms
Enkódoval : LAME3.97
Nastavení enkoderu : ABR
Jazyk : Czech



Screeny:
http://www.upnito.sk/5/tzr2z8m5pbed5w5a.jpg


Link:
Kód:

http://upnito.sk/download.php?dwToken=69834f94c417c65dd9fc7ed008a56418
http://upnito.sk/download.php?dwToken=2beb7a87a29bfa4ebab84f8086ec68bf
http://upnito.sk/download.php?dwToken=064a4c20b7b849aaa84f246bcc2411b3
http://upnito.sk/download.php?dwToken=03d9bafda4302429a325e16cf3dd899e


Pass:
Kód:

www.cucaj.sk
 
Prohlášení o Cookies |
Name
Email
Comment
Or visit this link or this one